我爱看高清论坛

 找回密码
 立即注册
搜索
查看: 1552|回复: 65

[港台] 灌篮/功夫灌篮/灌篮高手 Kung.Fu.Dunk.2008.1080p.BluRay.x264-AVCHD 【7.9GB】

  [复制链接]

该用户从未签到

发布组

UID
1690
注册时间
2016-5-2
最后登录
2016-5-2
在线时间
0 小时
帖子
19081
主题
17141
精华
0
汤圆
38156
饺子
0
年糕
0
积分
19081
阅读权限
102
通行证
0
发表于 2017-4-3 21:37:09 | 显示全部楼层
声明:本站所有作品片源均来源于互联网公开渠道,影视版权均归原电影公司所有,如有侵犯版权,请与52khd@52khd.cn联系,我们将立即删除. 52KHD宗旨点击进入

本帖最后由 saich001 于 2017-4-4 18:22 编辑


75bd02e45b73b38345e2924d239160972e115f8c.jpg

75bd02e45b73b38345e2924d239160972e115f8c.jpg

◎译  名 灌篮/功夫灌篮/灌篮高手
◎片  名 大灌篮
◎年  代 2008
◎国  家 中国大陆/香港/台湾
◎类  别 喜剧/运动
◎语  言 汉语普通话/粤语
◎上映日期 2008-02-07(香港/台湾)/2008-02-08(中国大陆)
◎IMDb评分  4.8/10 from 2,735 users
◎IMDb链接  http://www.imdb.com/title/tt0848538/
◎豆瓣评分 5.2/10 from 82,654 users
◎豆瓣链接 https://movie.douban.com/subject/1950525/
<p>◎◎片  长 99分钟
◎导  演 朱延平 Yen-ping Chu
◎主  演 周杰伦 Jay Chou
      陈柏霖 Bo-lin Chen
      陈楚河 Baron Chen
      蔡卓妍 Charlene Choi
      曾志伟 Eric Tsang
      黄渤  Bo Huang
      吴孟达 Man Tat Ng
      吴宗宪 Jacky Wu
      王刚 Gang Wang
      闫妮 Ni Yan
      刘畊宏 Will Liu


◎简  介


  世杰(周杰伦 饰)因为在外惹事而被功夫学校开除,他是一个弃婴,从来不曾离开过学校在外闯荡。虽然学校有着不学无术的校长、古怪的四大师叔,仍然是世杰的庇护所。在外流浪的第一晚,就因为把汽水罐扔进垃圾桶的本领被立叔(曾志伟 饰)看中——立叔生活潦倒,然而鬼点子多多,他帮世杰设计了一个“打篮球寻亲”的计划,利用志杰的特长在赚钱之余也名声远扬。然而篮球队是需要队长丁伟(陈柏霖 饰)许可才能进入,丁伟妹妹莉莉正是志杰暗恋的女孩,莉莉暗恋的却是中锋萧岚。世杰的天才让他轻松地进入篮球队,也让球队轻松地打进了大学篮球赛的冠军争夺赛。即将跟老对手李天——以前的战友、如今的敌手——交锋,世杰才明白丁伟的颓废不仅由于李天抢走了自己的女朋友,还在篮球场上让自己一败涂地。这不仅是一场篮球战,还是一场心理战。


◎获奖情况


  第45届台北金马影展  (2008)
  金马奖 最佳原创歌曲(提名) 周杰伦 / 杜国璋 / 方文山



Video
ID                                       : 1
Format                                   : AVC
Format/Info                              : Advanced Video Codec
Format profile                           : [email protected]
Format settings, CABAC                   : Yes
Format settings, ReFrames                : 5 frames
Codec ID                                 : V_MPEG4/ISO/AVC
Duration                                 : 1h 38mn
Bit rate                                 : 10.3 Mbps
Width                                    : 1 920 pixels
Height                                   : 800 pixels
Display aspect ratio                     : 2.40:1
Frame rate mode                          : Constant
Frame rate                               : 24.000 fps
Color space                              : YUV
Chroma subsampling                       : 4:2:0
Bit depth                                : 8 bits
Scan type                                : Progressive
Bits/(Pixel*Frame)                       : 0.278
Stream size                              : 6.92 GiB (87%)
Writing library                          : x264 core 75 r1259 dd026f2
Encoding settings                        : cabac=1 / ref=5 / deblock=1:0:0 / analyse=0x3:0x133 / me=umh / subme=7 / psy=1 / psy_rd=1.0:0.0 / mixed_ref=1 / me_range=16 / chroma_me=1 / trellis=1 / 8x8dct=1 / cqm=0 / deadzone=21,11 / chroma_qp_offset=-2 / threads=6 / nr=0 / decimate=1 / mbaff=0 / bframes=3 / b_pyramid=0 / b_adapt=1 / b_bias=0 / direct=1 / wpredb=1 / keyint=250 / keyint_min=25 / scenecut=40 / rc_lookahead=40 / rc=2pass / mbtree=1 / bitrate=10254 / ratetol=1.0 / qcomp=0.60 / qpmin=10 / qpmax=51 / qpstep=4 / cplxblur=20.0 / qblur=0.5 / ip_ratio=1.40 / aq=1:1.00
Language                                 : English
Default                                  : No
Forced                                   : No

Audio #1
ID                                       : 2
Format                                   : AC-3
Format/Info                              : Audio Coding 3
Mode extension                           : CM (complete main)
Format settings, Endianness              : Big
Codec ID                                 : A_AC3
Duration                                 : 1h 38mn
Bit rate mode                            : Constant
Bit rate                                 : 640 Kbps
Channel(s)                               : 6 channels
Channel positions                        : Front: L C R, Side: L R, LFE
Sampling rate                            : 48.0 KHz
Frame rate                               : 31.250 fps (1536 spf)
Compression mode                         : Lossy
Stream size                              : 452 MiB (6%)
Language                                 : English
Default                                  : Yes
Forced                                   : No

Audio #2
ID                                       : 3
Format                                   : AC-3
Format/Info                              : Audio Coding 3
Mode extension                           : CM (complete main)
Format settings, Endianness              : Big
Codec ID                                 : A_AC3
Duration                                 : 1h 38mn
Bit rate mode                            : Constant
Bit rate                                 : 640 Kbps
Channel(s)                               : 6 channels
Channel positions                        : Front: L C R, Side: L R, LFE
Sampling rate                            : 48.0 KHz
Frame rate                               : 31.250 fps (1536 spf)
Compression mode                         : Lossy
Stream size                              : 452 MiB (6%)
Language                                 : Chinese
Default                                  : No
Forced                                   : No

Text
ID                                       : 4
Format                                   : UTF-8
Codec ID                                 : S_TEXT/UTF8
Codec ID/Info                            : UTF-8 Plain Text
Language                                 : English
Default                                  : Yes
Forced                                   : No




灌篮/功夫灌篮/灌篮高手 Kung.Fu.Dunk.2008.1080p.BluRay.x264-AVCHD 7.9GB

灌篮/功夫灌篮/灌篮高手 Kung.Fu.Dunk.2008.1080p.BluRay.x264-AVCHD 7.9GB

灌篮/功夫灌篮/灌篮高手 Kung.Fu.Dunk.2008.1080p.BluRay.x264-AVCHD 7.9GB

灌篮/功夫灌篮/灌篮高手 Kung.Fu.Dunk.2008.1080p.BluRay.x264-AVCHD 7.9GB

灌篮/功夫灌篮/灌篮高手 Kung.Fu.Dunk.2008.1080p.BluRay.x264-AVCHD 7.9GB

灌篮/功夫灌篮/灌篮高手 Kung.Fu.Dunk.2008.1080p.BluRay.x264-AVCHD 7.9GB

灌篮/功夫灌篮/灌篮高手 Kung.Fu.Dunk.2008.1080p.BluRay.x264-AVCHD 7.9GB

灌篮/功夫灌篮/灌篮高手 Kung.Fu.Dunk.2008.1080p.BluRay.x264-AVCHD 7.9GB

灌篮/功夫灌篮/灌篮高手 Kung.Fu.Dunk.2008.1080p.BluRay.x264-AVCHD 7.9GB

灌篮/功夫灌篮/灌篮高手 Kung.Fu.Dunk.2008.1080p.BluRay.x264-AVCHD 7.9GB

灌篮/功夫灌篮/灌篮高手 Kung.Fu.Dunk.2008.1080p.BluRay.x264-AVCHD 7.9GB

灌篮/功夫灌篮/灌篮高手 Kung.Fu.Dunk.2008.1080p.BluRay.x264-AVCHD 7.9GB


                                                                                                                                                                                                       
                                                                       




游客,如果您要查看本帖隐藏内容请回复

回复

使用道具 举报

  • TA的每日心情
    慵懒
    6 小时前
  • 签到天数: 710 天

    [LV.9]以坛为家II

    高清上忍

    UID
    4247
    注册时间
    2017-1-25
    最后登录
    2019-11-19
    在线时间
    286 小时
    帖子
    2523
    主题
    0
    精华
    0
    汤圆
    159
    饺子
    4
    年糕
    19
    积分
    2575
    阅读权限
    70
    通行证
    10
    发表于 2017-4-6 10:18:51 | 显示全部楼层
    这片子哪里和灌篮高手有关系?

    回复 支持 反对

    使用道具 举报

  • TA的每日心情
    慵懒
    17 小时前
  • 签到天数: 571 天

    [LV.9]以坛为家II

    高清中忍

    UID
    5305
    注册时间
    2017-3-19
    最后登录
    2019-11-19
    在线时间
    279 小时
    帖子
    882
    主题
    31
    精华
    0
    汤圆
    15520
    饺子
    0
    年糕
    47
    积分
    917
    阅读权限
    50
    通行证
    10
    发表于 2017-4-6 21:08:29 | 显示全部楼层
    谢谢楼主的分享

    回复 支持 反对

    使用道具 举报

  • TA的每日心情
    慵懒
    2019-1-27 23:31
  • 签到天数: 195 天

    [LV.7]常住居民III

    高清中忍

    UID
    1254
    注册时间
    2016-3-25
    最后登录
    2019-2-22
    在线时间
    85 小时
    帖子
    891
    主题
    0
    精华
    0
    汤圆
    1484
    饺子
    0
    年糕
    0
    积分
    906
    阅读权限
    50
    通行证
    0
    发表于 2017-4-7 22:13:52 | 显示全部楼层
    看看周杰伦的篮球电影,感谢分享

    回复 支持 反对

    使用道具 举报

  • TA的每日心情
    开心
    18 小时前
  • 签到天数: 1430 天

    [LV.10]以坛为家III

    高清守卫

    UID
    85
    注册时间
    2015-11-11
    最后登录
    2019-11-19
    在线时间
    950 小时
    帖子
    8417
    主题
    1
    精华
    0
    汤圆
    8225
    饺子
    30
    年糕
    28
    积分
    8657
    阅读权限
    90
    通行证
    10
    发表于 2017-4-7 22:54:35 | 显示全部楼层
    昰打籃球的故事  但和漫畫似乎無關   多謝分享

    回复 支持 反对

    使用道具 举报

  • TA的每日心情

    2017-4-11 15:01
  • 签到天数: 5 天

    [LV.2]偶尔看看I

    高清村民

    UID
    5653
    注册时间
    2017-4-6
    最后登录
    2019-3-5
    在线时间
    2 小时
    帖子
    35
    主题
    1
    精华
    0
    汤圆
    20
    饺子
    0
    年糕
    0
    积分
    35
    阅读权限
    10
    通行证
    0
    发表于 2017-4-8 08:39:28 | 显示全部楼层
    周董早期的电影啊。。。还没看过

    回复 支持 反对

    使用道具 举报

  • TA的每日心情
    开心
    2017-10-23 18:03
  • 签到天数: 220 天

    [LV.7]常住居民III

    禁止访问

    UID
    3612
    注册时间
    2016-12-13
    最后登录
    2018-11-21
    在线时间
    44 小时
    帖子
    495
    主题
    1
    精华
    0
    汤圆
    1272
    饺子
    0
    年糕
    0
    积分
    506
    阅读权限
    0
    通行证
    0
    发表于 2017-4-9 12:29:03 | 显示全部楼层
    提示: 作者被禁止或删除 内容自动屏蔽
    回复 支持 反对

    使用道具 举报

  • TA的每日心情
    奋斗
    2017-4-10 13:05
  • 签到天数: 2 天

    [LV.1]初来乍到

    高清村民

    UID
    5711
    注册时间
    2017-4-9
    最后登录
    2017-4-10
    在线时间
    1 小时
    帖子
    29
    主题
    0
    精华
    0
    汤圆
    8
    饺子
    0
    年糕
    0
    积分
    30
    阅读权限
    10
    通行证
    0
    发表于 2017-4-9 17:06:48 | 显示全部楼层
    谢谢分享,支持楼主发帖

    回复 支持 反对

    使用道具 举报

  • TA的每日心情
    慵懒
    11 小时前
  • 签到天数: 1010 天

    [LV.10]以坛为家III

    暗部队长

    UID
    4184
    注册时间
    2017-1-22
    最后登录
    2019-11-19
    在线时间
    1618 小时
    帖子
    15390
    主题
    230
    精华
    0
    汤圆
    1
    饺子
    160
    年糕
    0
    积分
    16232
    阅读权限
    110
    通行证
    10

    最佳新人活跃会员热心会员

    发表于 2017-4-10 00:17:14 | 显示全部楼层
    这部电影我一直想看,但一直没找到,现在可以看看了。

    回复 支持 反对

    使用道具 举报

  • TA的每日心情
    开心
    5 小时前
  • 签到天数: 733 天

    [LV.9]以坛为家II

    上忍队长

    UID
    2378
    注册时间
    2016-8-3
    最后登录
    2019-11-19
    在线时间
    466 小时
    帖子
    1217
    主题
    5
    精华
    0
    汤圆
    14503
    饺子
    457
    年糕
    23
    积分
    3103
    阅读权限
    80
    通行证
    10

    最佳新人活跃会员2周年勋章3周年勋章4周年勋章

    发表于 2017-4-10 10:18:19 | 显示全部楼层
    电影都忘记了,不过里面歌曲好听,好像是周杰伦原唱的

    点评

    《周大侠》  发表于 2017-5-4 11:02
    回复 支持 反对

    使用道具 举报

    您需要登录后才可以回帖 登录 | 立即注册

    本版积分规则

    小黑屋|手机版|Archiver|我爱看高清论坛

    GMT+8, 2019-11-19 21:04

    Powered by 52KHD.CN

    © 2015-2019 我爱看高清论坛

    快速回复 返回顶部 返回列表